<?xml version="1.0" standalone="no"?> 
<!DOCTYPE svg PUBLIC "-//W3C//DTD SVG 1.1//EN" "http://www.w3.org/Graphics/SVG/1.1/DTD/svg11.dtd" >
<svg xmlns="http://www.w3.org/2000/svg">
<defs>
  <font id="ptroiconfont" horiz-adv-x="100">
    <font-face font-family="ptroiconfont"
      units-per-em="100" ascent="100"
      descent="0" />
    <missing-glyph horiz-adv-x="0" />
    <glyph glyph-name="0painterro"
      unicode="&#xF101;"
      horiz-adv-x="100" d=" M45 97L43 48L57 48L55 97zM41 45L40.007812 31.109375C40.007812 31.109375 43.007812 31.109375 46.007812 29.109375C49.007812 27.109375 49.994 24.94325 50 25C50 25 51.007812 27.109375 54.007812 29.109375C57.007812 31.109375 60.007812 31.109375 60.007812 31.109375L59 45zM39.537109 28.421875C30.477486 28.642721 23.349363 18.58304 17 16C11.329757 13.906267 6.999708 17 7.5820312 20C7.999708 21 7.9634601 22.283663 12 23C9 24.538997 5.5441919 23.999929 4 21.583984C-1.4592713 14.124713 13.819755 4.453567 28 5C43.957488 6.18788 57.914597 21.09374 42.412109 28.003906C41.432308 28.266443 40.474312 28.399029 39.537109 28.421875zM60.369141 28.246094C59.431938 28.223244 58.473942 28.090662 57.494141 27.828125C41.991653 20.917959 55.948762 6.012099 71.90625 4.824219C86.086495 4.277786 101.36552 13.948932 95.90625 21.408203C94.362058 23.824148 90.90625 24.363216 87.90625 22.824219C91.94279 22.107882 91.906542 20.824219 92.324219 19.824219C92.906542 16.824219 88.576493 13.730486 82.90625 15.824219C76.556887 18.407259 69.428764 28.46694 60.369141 28.246094z" />
    <glyph glyph-name="apply"
      unicode="&#xF102;"
      horiz-adv-x="100" d=" M9.7982464 49.9710699999999L39.769303 19.9999699999999L89.769303 69.9999999999999L80 79.9999999999999L40 39.9999699999999L20 59.9999999999999z" />
    <glyph glyph-name="arrow"
      unicode="&#xF103;"
      horiz-adv-x="100" d=" M42.499999 77.5L57.933602 64.8164L9.3417969 16.22457L16.412109 9.15427L65.23559 57.97777L77.499998 42.49997V42.49997L87.499998 87.5z" />
    <glyph glyph-name="blur"
      unicode="&#xF104;"
      horiz-adv-x="100" d=" M12.5 82.5L12.5 72.5L12.5 22.5L22.5 22.5L50 22.5L50 32.5L22.5 32.5L22.5 72.5L50 72.5L50 82.5L22.5 82.5L12.5 82.5z M55.000004 84.99999H60.000004V79.99999H55.000004V84.99999z M55.000008 74.99999H60.000008V69.99999H55.000008V74.99999z M65 84.99999H70V79.99999H65V84.99999z M65 74.99999H70V69.99999H65V74.99999z M75 84.99999H80V79.99999H75V84.99999z M75 74.99999H80V69.99999H75V74.99999z M54.999996 34.99997H59.999996V29.99997H54.999996V34.99997z M55.000004 24.99997H60.000004V19.99997H55.000004V24.99997z M64.999992 34.99997H69.999992V29.99997H64.999992V34.99997z M65.000008 24.99997H70.000008V19.99997H65.000008V24.99997z M74.999992 34.99997H79.999992V29.99997H74.999992V34.99997z M74.999992 24.99997H79.999992V19.99997H74.999992V24.99997z M75.000008 64.99999H80.000008V59.99999H75.000008V64.99999z M85.000008 64.99999H90.000008V59.99999H85.000008V64.99999z M75.000008 54.99999H80.000008V49.99999H75.000008V54.99999z M85.000008 54.99999H90.000008V49.99999H85.000008V54.99999z M75.000008 44.99997H80.000008V39.99997H75.000008V44.99997z M85.000008 44.99997H90.000008V39.99997H85.000008V44.99997z M85.000008 74.99999H90.000008V69.99999H85.000008V74.99999z M84.999992 34.99997H89.999992V29.99997H84.999992V34.99997z M85 24.99997H90V19.99997H85V24.99997z M85 84.99999H90V79.99999H85V84.99999z" />
    <glyph glyph-name="brush"
      unicode="&#xF105;"
      horiz-adv-x="100" d=" M79.39258 90L58.177735 68.78711L51.107422 75.85742L44.03711 68.78516L51.107422 61.71488L61.714844 51.10727L68.785157 44.03697L75.85742 51.10727L68.78711 58.17778L90 79.39258L79.39258 90zM40.501954 64.79297C40.501954 64.79297 25.901264 52.83248 11.892579 52.23047C11.640968 52.21947 9.703126 52.37108 9.703126 52.37108C13.238659 34.69327 35.842622 12.05887 51.199219 12.27337C51.37693 12.27337 51.819629 12.86337 51.949219 12.99017C65.250632 26.06407 64.859376 40.39057 64.859376 40.39057L40.501954 64.79297z" />
    <glyph glyph-name="close"
      unicode="&#xF106;"
      horiz-adv-x="100" d=" M50 97.5A47.499999 47.500007 0 0 1 2.5 49.99997A47.499999 47.500007 0 0 1 50 2.49997A47.499999 47.500007 0 0 1 97.5 49.99997A47.499999 47.500007 0 0 1 50 97.5zM50 86.3242A36.323527 36.323534 0 0 0 86.32422 49.99997A36.323527 36.323534 0 0 0 50 13.6757699999999A36.323527 36.323534 0 0 0 13.675781 49.99997A36.323527 36.323534 0 0 0 50 86.3242zM35 75L25 65L40 49.99997L25 34.99997L35 24.99997L50 39.99997L65 24.99997L75 34.99997L60 49.99997L75 65L65 75L50 60L35 75z" />
    <glyph glyph-name="crop"
      unicode="&#xF107;"
      horiz-adv-x="100" d=" M67.5 92.5L67.5 77.5L32.5 77.5L22.5 77.5L22.5 67.5L22.5 32.5L7.5 32.5L7.5 22.5L22.5 22.5L22.5 7.5L32.5 7.5L32.5 22.5L77.5 22.5L77.5 32.5L77.5 67.5L92.5 67.5L92.5 77.5L77.5 77.5L77.5 92.5L67.5 92.5zM32.5 67.5L67.5 67.5L67.5 32.5L32.5 32.5L32.5 67.5z" />
    <glyph glyph-name="ellipse"
      unicode="&#xF108;"
      horiz-adv-x="100" d=" M50 87.5A37.499999 37.499971 0 0 1 12.5 49.99997A37.499999 37.499971 0 0 1 50 12.49997A37.499999 37.499971 0 0 1 87.5 49.99997A37.499999 37.499971 0 0 1 50 87.5zM50 78.67578A28.676468999999997 28.676447999999997 0 0 0 78.67578 49.99997A28.676468999999997 28.676447999999997 0 0 0 50 21.32417A28.676468999999997 28.676447999999997 0 0 0 21.324219 49.99997A28.676468999999997 28.676447999999997 0 0 0 50 78.67578z" />
    <glyph glyph-name="eraser"
      unicode="&#xF109;"
      horiz-adv-x="100" d=" M52.947814 6.4433700000001A3.7442699 4.444417 0 0 1 56.376924 9.1015700000001L84.685094 85.7148500000001A3.7442699 4.444417 0 0 1 81.255994 91.9433500000001L47.052214 91.9433500000001A3.7442699 4.444417 0 0 1 43.624714 89.2851500000001L15.314914 12.6718700000001A3.7442699 4.444417 0 0 1 18.744014 6.4433700000001L52.947814 6.4433700000001zM63.419404 50.2871700000001L37.391814 50.2871700000001L49.499014 83.0546500000001L75.526564 83.0546500000001L63.419404 50.2871700000001z M29.618973 48.09947L70.21898 48.09947" />
    <glyph glyph-name="line"
      unicode="&#xF10A;"
      horiz-adv-x="100" d=" M83.587891 90.4510800000001L9.3417969 16.20487L16.412109 9.13457L90.658203 83.38077z" />
    <glyph glyph-name="linked"
      unicode="&#xF10B;"
      horiz-adv-x="100" d=" M41.976562 95.3066406L29.951172 84.693359L29.951172 68.7734380000001L41 57L42 57L42 62L42 64L35.962891 70.542969L35.962891 82.923828L43.980469 90L54 90L62.015625 82.923828L62.015625 70.542969L56 64L56 57L57 57L68.029297 68.7734380000001L68.029297 84.693359L56.003906 95.3066406L41.976562 95.3066406zM45.546875 70.035156L45.546875 30.626953L52.453125 30.626953L52.453125 70.035156L45.546875 70.035156zM41 43L29.951172 31.2265619999999L29.951172 15.306641L41.976562 4.693359L56.003906 4.693359L68.029297 15.306641L68.029297 31.2265619999999L57 43L56 43L56 36L62.015625 29.457031L62.015625 17.076172L54 10L43.980469 10L35.962891 17.076172L35.962891 29.457031L42 36L42 38L42 43L41 43z" />
    <glyph glyph-name="loading"
      unicode="&#xF10C;"
      horiz-adv-x="100" d=" M80 49.99997C80 44.4771225016921 84.4771525016921 39.99997 90 39.99997C95.5228474983079 39.99997 100 44.4771225016921 100 49.99997C100 55.5228174983079 95.5228474983079 59.99997 90 59.99997C84.4771525016921 59.99997 80 55.5228174983079 80 49.99997z M69.284271 78.2842899999999C69.284271 73.313725649897 73.3137082515229 69.2842870999999 78.284271 69.2842870999999C83.2548337484771 69.2842870999999 87.284271 73.313725649897 87.284271 78.2842899999999C87.284271 83.2548543501029 83.2548337484771 87.2842929 78.284271 87.2842929C73.3137082515229 87.2842929 69.284271 83.2548543501029 69.284271 78.2842899999999z M42 90.49999C42 86.0817099026716 45.5817220013537 82.4999862000001 50 82.4999862000001C54.4182779986463 82.4999862000001 58 86.0817099026716 58 90.49999C58 94.9182700973285 54.4182779986463 98.4999938 50 98.4999938C45.5817220013537 98.4999938 42 94.9182700973285 42 90.49999z M14.715727 78.2842899999999C14.715727 74.4182980766678 17.8497337511844 71.2842923999999 21.715727 71.2842923999999C25.5817202488156 71.2842923999999 28.715727 74.4182980766678 28.715727 78.2842899999999C28.715727 82.1502819233321 25.5817202488156 85.2842876 21.715727 85.2842876C17.8497337511844 85.2842876 14.715727 82.1502819233321 14.715727 78.2842899999999z M4 49.99997C4 46.6862635996972 6.6862915010152 43.9999737999999 10 43.9999737999999C13.3137084989848 43.9999737999999 16 46.6862635996972 16 49.99997C16 53.3136764003027 13.3137084989848 55.9999662 10 55.9999662C6.6862915010152 55.9999662 4 53.3136764003027 4 49.99997z M16.715736 21.7156699999999C16.715736 18.9542449253626 18.954312250846 16.7156675999998 21.715736 16.7156675999998C24.477159749154 16.7156675999998 26.715736 18.9542449253626 26.715736 21.7156699999999C26.715736 24.4770950746373 24.477159749154 26.7156724 21.715736 26.7156724C18.954312250846 26.7156724 16.715736 24.4770950746373 16.715736 21.7156699999999z M45 9.99997C45 7.2385449253626 47.238576250846 4.9999675999999 50 4.9999675999999C52.761423749154 4.9999675999999 55 7.2385449253626 55 9.99997C55 12.7613950746373 52.761423749154 14.9999724 50 14.9999724C47.238576250846 14.9999724 45 12.7613950746373 45 9.99997z M73.284264 21.7156699999999C73.284264 18.9542449253626 75.522840250846 16.7156675999998 78.284264 16.7156675999998C81.045687749154 16.7156675999998 83.284264 18.9542449253626 83.284264 21.7156699999999C83.284264 24.4770950746373 81.045687749154 26.7156724 78.284264 26.7156724C75.522840250846 26.7156724 73.284264 24.4770950746373 73.284264 21.7156699999999z" />
    <glyph glyph-name="mirror"
      unicode="&#xF10D;"
      horiz-adv-x="100" d=" M12.5 100L6.9015491808332 100.8107702667039L18.4846006905786 91.9884736426617L13.3107702667039 105.5984508191668L12.5 100z M45 92.5L15 7.5L45 7.5L45 92.5zM56 92.5L56 7.5L86 7.5L56 92.5zM60.5 66L78.5 12L60.5 12L60.5 66zM63.5 48L63.5 15L74.5 15L63.5 48z" />
    <glyph glyph-name="open"
      unicode="&#xF10E;"
      horiz-adv-x="100" d=" M13.070312 87.49999L8.1992185 78.35344L8.1992185 28.04827L22.814453 69.20687L74.458984 69.20687L74.458984 78.35344L42.302734 78.35344L37.431641 87.49999L13.070312 87.49999zM92 60.06031L30.367188 60.04981L12.111328 12.51037L74.458984 12.50037L92 60.06031z" />
    <glyph glyph-name="paste_extend_down"
      unicode="&#xF10F;"
      horiz-adv-x="100" d=" M5 95L5 55L8.7519531 55L95 55L95 95L5 95zM12.503906 87.496094L87.496094 87.496094L87.496094 62.501953L12.503906 62.501953L12.503906 87.496094zM36.210938 50.056641L36.210938 46.230469L36.210938 34.546875L14.556641 34.546875L50.042969 4.857422L85.417969 34.546875L63.789062 34.546875L63.789062 50.056641L36.210938 50.056641zM43.859375 42.40625L56.140625 42.40625L56.140625 26.896484L64.404297 26.896484L50.035156 14.837891L35.621094 26.896484L43.859375 26.896484L43.859375 42.40625z" />
    <glyph glyph-name="paste_extend_right"
      unicode="&#xF110;"
      horiz-adv-x="100" d=" M5.5488281 95.546875L5.5488281 5.546875L9.2988281 5.546875L45.546875 5.546875L45.546875 95.546875L5.5488281 95.546875zM13.050781 88.042969L38.044922 88.042969L38.044922 13.050781L13.050781 13.050781L13.050781 88.042969zM66.074219 85.765625L66.074219 64.263672L50.564453 64.263672L50.564453 36.830078L54.316406 36.830078L66.074219 36.830078L66.074219 15.3046880000001L95.595703 50.589844L66.074219 85.765625zM73.576172 65.152344L85.804688 50.582031L73.576172 35.966797L73.576172 44.333984L58.066406 44.333984L58.066406 56.759766L73.576172 56.759766L73.576172 65.152344z" />
    <glyph glyph-name="paste_fit"
      unicode="&#xF111;"
      horiz-adv-x="100" d=" M5 95L5 91.2851562L5 5L95 5L95 95L5 95zM12.429688 87.570312L87.570312 87.570312L87.570312 12.4296880000001L12.429688 12.4296880000001L12.429688 87.570312zM80 80L53.365234 73.556641L66.824219 70.191406L50 60.095703L60.09375 50L70.189453 66.826172L73.554688 53.365234L80 80zM40.09375 50L30.185547 33.490234L26.882812 46.697266L20 20L46.697266 26.884766L33.488281 30.1875L50 40.09375L40.09375 50z" />
    <glyph glyph-name="paste_over"
      unicode="&#xF112;"
      horiz-adv-x="100" d=" M50 95L35 81.666016L42.5 81.666016L42.5 75L57.5 75L57.5 81.666016L65 81.666016L50 95zM30 70L30 30L32.970703 30L65.871094 30L70 30L70 70L30 70zM18.333984 65L5 50L18.333984 35L18.333984 42.5L25 42.5L25 57.5L18.333984 57.5L18.333984 65zM81.666016 65L81.666016 57.5L75 57.5L75 42.5L81.666016 42.5L81.666016 35L95 50L81.666016 65zM35.939453 64.058594L64.060547 64.058594L64.060547 35.939453L35.939453 35.939453L35.939453 64.058594zM42.5 25L42.5 18.333984L35 18.333984L50 5L65 18.333984L57.5 18.333984L57.5 25L42.5 25z" />
    <glyph glyph-name="pipette"
      unicode="&#xF113;"
      horiz-adv-x="100" d=" M80.498047 92.5C77.43311 92.5 74.368044 91.3270456 72.019531 88.978516L55.640625 72.597656L54.814453 73.423828C52.237036 76.001248 48.087183 76.001248 45.509766 73.423828C42.932351 70.846398 42.932351 66.696561 45.509766 64.119141L48.751953 60.875L15.017578 27.140625C11.659871 23.782825 11.659871 18.375278 15.017578 15.017578C18.375284 11.659878 23.782918 11.659878 27.140625 15.017578L60.875 48.751953L64.117188 45.509766C66.694603 42.932366 70.846414 42.932366 73.423828 45.509766C76.001244 48.087166 76.001244 52.236973 73.423828 54.814453L72.597656 55.640625L88.976562 72.019531C93.673586 76.716581 93.673586 84.2814560000001 88.976562 88.978516C86.62805 91.3270456 83.562982 92.5 80.498047 92.5zM52.888672 57.039062L57.039062 52.888672L52.621094 48.470703C52.60515 48.454011 52.594536 48.43438 52.578125 48.417969L23.738281 19.580078C22.586129 18.427926 20.73223 18.427926 19.580078 19.580078C18.427926 20.73223 18.427926 22.586129 19.580078 23.738281L48.417969 52.578125C48.43438 52.594536 48.454011 52.60515 48.470703 52.621094L52.888672 57.039062z" />
    <glyph glyph-name="pixelize"
      unicode="&#xF114;"
      horiz-adv-x="100" d=" M21 84L21 71L34 71L34 84L21 84zM36 84L36 71L49 71L49 84L36 84zM51 84L51 71L64 71L64 74L64 76L64 84L51 84zM66 74L66 61L79 61L79 74L66 74zM21 69L21 56L34 56L34 69L21 69zM66 59L66 46L79 46L79 59L66 59zM21 54L21 41L34 41L34 49L34 51L34 54L21 54zM36 49L36 36L49 36L49 49L36 49zM51 49L51 36L64 36L64 44L64 46L64 49L51 49zM21 39L21 26L34 26L34 39L21 39zM21 24L21 11L34 11L34 24L21 24z" />
    <glyph glyph-name="rect"
      unicode="&#xF115;"
      horiz-adv-x="100" d=" M12.5 82.5L12.5 71.66667L12.5 17.49997L22.5 17.49997L87.5 17.49997L87.5 28.33337L87.5 71.66667L87.5 82.5L77.5 82.5L22.5 82.5L12.5 82.5zM22.5 71.66667L77.5 71.66667L77.5 28.33337L22.5 28.33337L22.5 71.66667z" />
    <glyph glyph-name="redo"
      unicode="&#xF116;"
      horiz-adv-x="100" d=" M55.895272 90L88.807145 62.261719L55.895272 35L60.596968 55C49.421257 55.826172 40.958204 53.826172 32.495151 47.826172C21.21108 39.826172 15.569045 23.826172 13.688366 9.826172C11.807688 20.826172 4.2849745 44.826172 18.390062 59.826172C27.205743 69.201172 37.858023 71.154297 46.903278 71.056641C52.330431 70.998051 57.070696 70.375 60.596968 70L55.895272 90z" />
    <glyph glyph-name="resize"
      unicode="&#xF117;"
      horiz-adv-x="100" d=" M94.578119 94.5742L54.999999 85L74.999998 80L74.999998 80L49.999999 65L64.999999 49.99997L79.999998 75L79.999998 75L84.999998 55z M4.578118 4.57417L44.999999 14.99997L24.999999 19.99997L24.999999 19.99997L49.999999 34.99997L34.999999 49.99997L20 24.99997L20 24.99997L15 44.99997z" />
    <glyph glyph-name="rotate"
      unicode="&#xF118;"
      horiz-adv-x="100" d=" M49.779297 92.4999799999999L51.765625 77.4511499999999L47.388672 77.5019499999999C28.058694 77.5019499999999 13.388655 61.8300499999999 13.388672 42.4999699999999C13.388672 23.1699699999999 29.058706 7.4999699999999 48.388672 7.4999699999999C55.496881 7.4999699999999 62.109701 9.6190699999999 67.630859 13.2597699999999C68.429174 13.7861699999999 69.202281 14.3472699999999 69.953125 14.9355699999999L62.806641 22.0839699999999C62.706831 22.0129699999999 62.610646 21.9363699999999 62.509766 21.8671699999999C58.491879 19.1121699999999 53.628389 17.4999699999999 48.388672 17.4999699999999C34.581553 17.4999699999999 23.388672 28.6928699999999 23.388672 42.4999699999999C23.388655 56.3071999999999 33.581542 67.5019499999999 47.388672 67.5019499999999L47.388672 67.5410499999999L51.765625 67.5527499999999L49.775391 52.5000199999999L85 72.50195L49.779297 92.5z" />
    <glyph glyph-name="save"
      unicode="&#xF119;"
      horiz-adv-x="100" d=" M10 86L10 9.99997L90 9.99997L90 70L74 86L62 86L62 56L24 56L24 86L10 86z M44 83.5546899999999L44 61.9999999999999L54 61.9999999999999L54.05469 83.5546899999999L44.000002 83.5546899999999z" />
    <glyph glyph-name="select"
      unicode="&#xF11A;"
      horiz-adv-x="100" d=" M13 78.99999H23V68.99999H13V78.99999z M77 78.99999H87V68.99999H77V78.99999z M13 62.99999H23V52.99999H13V62.99999z M13 46.99997H23V36.99997H13V46.99997z M29 78.99999H39V68.99999H29V78.99999z M45 78.99999H55V68.99999H45V78.99999z M61 78.99999H71V68.99999H61V78.99999z M13 30.99997H23V20.99997H13V30.99997z M77 62.99999H87V52.99999H77V62.99999z M77 46.99997H87V36.99997H77V46.99997z M77 30.99997H87V20.99997H77V30.99997z M29 30.99997H39V20.99997H29V30.99997z M45 30.99997H55V20.99997H45V30.99997z M61 30.99997H71V20.99997H61V30.99997z" />
    <glyph glyph-name="settings"
      unicode="&#xF11B;"
      horiz-adv-x="100" d=" M42.5 92.5L42.5 81.5859380000001A32.499999 32.499961 0 0 1 32.933594 77.613281L25.234375 85.3125L14.662109 74.7421880000001L22.357422 67.046875A32.499999 32.499961 0 0 1 18.404297 57.451172L7.5 57.451172L7.5 42.5L18.414062 42.5A32.499999 32.499961 0 0 1 22.386719 32.933594L14.662109 25.208984L25.234375 14.636719L32.953125 22.357422A32.499999 32.499961 0 0 1 42.5 18.416016L42.5 7.548828L57.5 7.548828L57.5 18.4140619999999A32.499999 32.499961 0 0 1 67.035156 22.369141L74.765625 14.636719L85.337891 25.208984L77.625 32.921875A32.499999 32.499961 0 0 1 81.583984 42.5L92.5 42.5L92.5 57.451172L81.580078 57.451172A32.499999 32.499961 0 0 1 77.630859 67.035156L85.337891 74.7421880000001L74.765625 85.3125L67.078125 77.625A32.499999 32.499961 0 0 1 57.5 81.583984L57.5 92.5L42.5 92.5zM50 67.205078A17.205881 17.205845 0 0 0 67.205078 50A17.205881 17.205845 0 0 0 50 32.794922A17.205881 17.205845 0 0 0 32.794922 50A17.205881 17.205845 0 0 0 50 67.205078z" />
    <glyph glyph-name="text"
      unicode="&#xF11C;"
      horiz-adv-x="100" d=" M15 85L15 75L45 75L45 10L55 10L55 75L85 75L85 85L15 85z" />
    <glyph glyph-name="undo"
      unicode="&#xF11D;"
      horiz-adv-x="100" d=" M42.911873 90L10 62.261719L42.911873 35L38.210177 55C49.385888 55.826172 57.848941 53.826172 66.311994 47.826172C77.596065 39.826172 83.2381 23.826172 85.118779 9.826172C86.999457 20.826172 94.522171 44.826172 80.417083 59.826172C71.601402 69.201172 60.949122 71.154297 51.903867 71.056641C46.476714 70.998051 41.736449 70.375 38.210177 70L42.911873 90z" />
    <glyph glyph-name="unlinked"
      unicode="&#xF11E;"
      horiz-adv-x="100" d=" M41.976562 95.3066406L29.951172 84.693359L29.951172 68.7734380000001L41 57L42 57L42 62L42 64L35.962891 70.542969L35.962891 82.923828L43.980469 90L54 90L62.015625 82.923828L62.015625 70.542969L56 64L56 57L57 57L68.029297 68.7734380000001L68.029297 84.693359L56.003906 95.3066406L41.976562 95.3066406zM14 68L12.117188 64.470703L28 56L29.882812 59.529297L14 68zM86 68L70.117188 59.529297L72 56L87.882812 64.470703L86 68zM10 52L10 48L28 48L28 52L10 52zM72 52L72 48L90 48L90 52L72 52zM28 44L12.117188 35.529297L14 32L29.882812 40.470703L28 44zM72 44L70.117188 40.470703L86 32L87.882812 35.529297L72 44zM41 43L29.951172 31.2265619999999L29.951172 15.306641L41.976562 4.693359L56.003906 4.693359L68.029297 15.306641L68.029297 31.2265619999999L57 43L56 43L56 36L62.015625 29.457031L62.015625 17.076172L54 10L43.980469 10L35.962891 17.076172L35.962891 29.457031L42 36L42 38L42 43L41 43z" />
  </font>
</defs>
</svg>
